google ads


نوع التورنيت

Action
Adventures
Comedy
Comedy2
Crime
Detective
Documentary
Drama
Fantasy
Historical
Horror
Music
Novel
Sci_fi
Sport
Triller
Western

فئات التحميل

    A
    B
    C
    D
    E
    F
    G
    H
    I
    J
    K
    L
    M
    N
    O
    P
    Q
    R
    S
    T
    U
    V
    W
    X
    Y
    Z
    0-9
    [AnimeTinT] Zenonzard The Animation

    Uploaded 21-05-2021 21:59 by النظام
    Seeders: 1 / Leechers: 0 / Size: 1.88 GB / منجز: 1
    تحميل التورنيت الإبلاغ عن مخالفة للتورنيت <b>وصف ملف التورنت</b>
    Genre: Action | Fantasy
    Category: Anime TV
    <b>اخفاء أسم رافع الملف</b>

    General
    Unique ID : 37878252292103328899033866281770914749 (0x1C7F160642EC27FA0D35B4E5A6FD93BD)
    Complete name : D:\Anime\[AnimeTinT] Zenonzard The Animation\[AnimeTinT] Zenonzard The Animation S01E00 [1080p WEB-DL AAC 2.0 x264].mkv
    Format : Matroska
    Format version : Version 4
    File size : 281 MiB
    Duration : 27 min 18 s
    Overall bit rate : 1 437 kb/s
    Encoded date : UTC 2021-05-14 13:15:30
    Writing application : mkvmerge v53.0.0 ('Fool's Gold') 64-bit
    Writing library : libebml v1.4.1 + libmatroska v1.6.2
    Video
    ID : 1
    Format : AVC
    Format/Info : Advanced Video Codec
    Format profile : [email protected]
    Format settings : CABAC / 3 Ref Frames
    Format settings, CABAC : Yes
    Format settings, Reference frames : 3 frames
    Codec ID : V_MPEG4/ISO/AVC
    Duration : 27 min 18 s
    Bit rate : 1 306 kb/s
    Width : 1 920 pixels
    Height : 1 080 pixels
    Display aspect ratio : 16:9
    Frame rate mode : Constant
    Frame rate : 23.976 (24000/1001) FPS
    Color space : YUV
    Chroma subsampling : 4:2:0
    Bit depth : 8 bits
    Scan type : Progressive
    Bits/(Pixel*Frame) : 0.026
    Stream size : 255 MiB (91%)
    Writing library : x264 core 155 r2901 7d0ff22
    Default : Yes
    Forced : No
    Color range : Limited
    Color primaries : BT.709
    Transfer characteristics : BT.709
    Matrix coefficients : BT.709
    Audio
    ID : 2
    Format : AAC LC
    Format/Info : Advanced Audio Codec Low Complexity
    Codec ID : A_AAC-2
    Duration : 27 min 18 s
    Bit rate : 128 kb/s
    Channel(s) : 2 channels
    Channel layout : L R
    Sampling rate : 44.1 kHz
    Frame rate : 43.066 FPS (1024 SPF)
    Compression mode : Lossy
    Stream size : 25.0 MiB (9%)
    Language : Japanese
    Default : Yes
    Forced : No
    Text #1
    ID : 3
    Format : UTF-8
    Codec ID : S_TEXT/UTF8
    Codec ID/Info : UTF-8 Plain Text
    Duration : 25 min 5 s
    Bit rate : 42 b/s
    Count of elements : 293
    Stream size : 7.87 KiB (0%)
    Language : English
    Default : Yes
    Forced : No
    Text #2
    ID : 4
    Format : UTF-8
    Codec ID : S_TEXT/UTF8
    Codec ID/Info : UTF-8 Plain Text
    Duration : 25 min 26 s
    Bit rate : 41 b/s
    Count of elements : 304
    Stream size : 7.78 KiB (0%)
    Language : Spanish
    Default : No
    Forced : No
    Text #3
    ID : 5
    Format : UTF-8
    Codec ID : S_TEXT/UTF8
    Codec ID/Info : UTF-8 Plain Text
    Duration : 25 min 5 s
    Bit rate : 44 b/s
    Count of elements : 302
    Stream size : 8.17 KiB (0%)
    Language : Spanish
    Default : No
    Forced : No
    Text #4
    ID : 6
    Format : UTF-8
    Codec ID : S_TEXT/UTF8
    Codec ID/Info : UTF-8 Plain Text
    Duration : 25 min 5 s
    Bit rate : 46 b/s
    Count of elements : 301
    Stream size : 8.46 KiB (0%)
    Language : fil
    Default : No
    Forced : No
    Text #5
    ID : 7
    Format : UTF-8
    Codec ID : S_TEXT/UTF8
    Codec ID/Info : UTF-8 Plain Text
    Duration : 25 min 26 s
    Bit rate : 44 b/s
    Count of elements : 303
    Stream size : 8.21 KiB (0%)
    Language : French
    Default : No
    Forced : No
    Text #6
    ID : 8
    Format : UTF-8
    Codec ID : S_TEXT/UTF8
    Codec ID/Info : UTF-8 Plain Text
    Duration : 25 min 5 s
    Bit rate : 42 b/s
    Count of elements : 302
    Stream size : 7.87 KiB (0%)
    Language : Italian
    Default : No
    Forced : No
    Text #7
    ID : 9
    Format : UTF-8
    Codec ID : S_TEXT/UTF8
    Codec ID/Info : UTF-8 Plain Text
    Duration : 25 min 26 s
    Bit rate : 52 b/s
    Count of elements : 305
    Stream size : 9.69 KiB (0%)
    Language : Korean
    Default : No
    Forced : No
    Text #8
    ID : 10
    Format : UTF-8
    Codec ID : S_TEXT/UTF8
    Codec ID/Info : UTF-8 Plain Text
    Duration : 25 min 26 s
    Bit rate : 42 b/s
    Count of elements : 303
    Stream size : 7.86 KiB (0%)
    Language : Portuguese
    Default : No
    Forced : No
    Text #9
    ID : 11
    Format : UTF-8
    Codec ID : S_TEXT/UTF8
    Codec ID/Info : UTF-8 Plain Text
    Duration : 25 min 5 s
    Bit rate : 44 b/s
    Count of elements : 302
    Stream size : 8.13 KiB (0%)
    Language : Breton
    Default : No
    Forced : No
    Text #10
    ID : 12
    Format : UTF-8
    Codec ID : S_TEXT/UTF8
    Codec ID/Info : UTF-8 Plain Text
    Duration : 25 min 26 s
    Bit rate : 69 b/s
    Count of elements : 305
    Stream size : 12.9 KiB (0%)
    Language : Russian
    Default : No
    Forced : No
    Text #11
    ID : 13
    Format : UTF-8
    Codec ID : S_TEXT/UTF8
    Codec ID/Info : UTF-8 Plain Text
    Duration : 25 min 26 s
    Bit rate : 110 b/s
    Count of elements : 305
    Stream size : 20.7 KiB (0%)
    Language : Thai
    Default : No
    Forced : No
    Text #12
    ID : 14
    Format : UTF-8
    Codec ID : S_TEXT/UTF8
    Codec ID/Info : UTF-8 Plain Text
    Duration : 25 min 6 s
    Bit rate : 56 b/s
    Count of elements : 301
    Stream size : 10.5 KiB (0%)
    Language : Vietnamese
    Default : No
    Forced : No
    Text #13
    ID : 15
    Format : UTF-8
    Codec ID : S_TEXT/UTF8
    Codec ID/Info : UTF-8 Plain Text
    Duration : 25 min 26 s
    Bit rate : 40 b/s
    Count of elements : 304
    Stream size : 7.45 KiB (0%)
    Default : No
    Forced : No
    Text #14
    ID : 16
    Format : UTF-8
    Codec ID : S_TEXT/UTF8
    Codec ID/Info : UTF-8 Plain Text
    Duration : 25 min 5 s
    Bit rate : 41 b/s
    Count of elements : 304
    Stream size : 7.71 KiB (0%)
    Language : Chinese
    Default : No
    Forced : No
    Text #15
    ID : 17
    Format : UTF-8
    Codec ID : S_TEXT/UTF8
    Codec ID/Info : UTF-8 Plain Text
    Duration : 25 min 5 s
    Bit rate : 40 b/s
    Count of elements : 304
    Stream size : 7.39 KiB (0%)
    Language : Twi
    Default : No
    Forced : No
    حكايات عالمية ج1 بلوراي ريب عالية صورة وصوت

    Click to Enlarge!
    Uploaded 30-04-2021 15:38 by النظام
    Seeders: 1 / Leechers: 0 / Size: 6.41 GB / منجز: 3
    تحميل التورنيت الإبلاغ عن مخالفة للتورنيت <b>وصف ملف التورنت</b>
    Category: Anime VIP
    <b>اخفاء أسم رافع الملف</b>


    حكابات عالمية جودة بلوراي عالية جدا مع اصوات تم تنقيتها في موقعنا بتقنية خاصة

    هذه السلسلة هي الجزء الاول وهي خالية من حقوق دبلجة لأنها كما عهدنا الجميع أن نكون

    إذا كنتم ترغبون في نشر أعمال الموقع على النت فالرجاء ذكر المصدر المحمول منه والله الموفق